Torrents NFO.txt

(4 KB) Pobierz
ÑÏĞÅÒÅ ÈÇÁÈÂÀÍÅÒÎ ÍÀ ÒŞËÅÍÈÒÅ!!! 

http://www.pleasehelp.hit.bg/   <<<==--==--==--==--==--==--==--==--==--==--==--=-

http://hsus.feedroom.com/?fr_story=37a923c63df56a2590da5ac9a7d5de5f991d3c39&rf=bm

Ìîëÿ âèæòå ñòğàíèöàòà è ÿ ïîêàæåòå íà âàø ïğèÿòåë.
Íåêà ñïğåì  ÈÇÁÈÂÀÍÅÒÎ ÍÀ ÒŞËÅÍÈÒÅ!
================================================================================
////////////////////////////////////////////////////////////////////////////////
Ëèíê IMDB....: http://www.imdb.com/title/tt1214962/
--------------------------------------------------------------------------------
Ëèíê YouTube: http://www.youtube.com/watch?v=e2oscF3ZHjE
////////////////////////////////////////////////////////////////////////////////
================================================================================
                           Info Movie:                                     -=oZiRis811=-
================================================================================
                  http://subsmania.info/
================================================================================
           
          ÌÎËß ÑÈÉÄÂÀÉÒÅ ÒÎÇÈ ÔÈËÌ ÏĞÎÄÚËÆÈÒÅËÍÎ !!!
          ÍÅÊÀ È ÒÅÇÈ ÑËÅÄ ÂÀÑ ÈÌÀÒ ÂÚÇÌÎÆÍÎÑÒÒÀ ÄÀ ÃÎ ÃËÅÄÀÒ.
                                                                   Áëàãîäàğÿ âè.
================================================================================
           Seeking Justice / Â òúğñåíå íà ñïğàâåäëèâîñòòà (2011) 



## Äúğæàâà : ÑÀÙ

## Ğåæèñüîğ : Ğîäæúğ Äîíàëäñúí

## Â ğîëèòå : Íèêúëúñ Êåéäæ, Äæåíşúğè Äæîóíñ, Ãàé Ïèúğñ, Äæåíèôúğ Êàğïåíòúğ, Êñàíäúğ Áúğêëè,
Õàğîëä Ïåğèíş, Ìîíèêà Àêîñòà è äğóãè. 

## IMDB ğåéòèíã : 6.2/10 (1,104 ãëàñà)

## Æàíğ : Åêøúí, Äğàìà, Òğèëúğ 

## Ïğåìèåğà : 16 Ìàğò 2012 (ÑÀÙ)

## Ìÿñòî íà çàñíåìàíå: Íş Îğëåàíñ, Ëóèçèàíà, ÑÀÙ

## Ãîäèíà : 2011

## Âğåìåòğàåíå : 01:44:49 ìèíóòè

## Ïğåâîä : Áëàãîäàğåíèå íà "mia_one"

## Ğåçşìå : Ñëåä êàòî êğàñèâà æåíà å íàïàäíàòà îò íåïîçíàò, ñúïğóãàò é å òâúğäî ğåøåí ñàì äà ñå çàåìå ñúñ ñëó÷àÿ,
âìåñòî äà ïğåäîñòàâè èíôîğìàöèÿ íà ïîëèöèÿòà. Çà öåëòà òîé íàåìà ìåñòíà ãğóïèğîâêà, êîÿòî äà ğàçíèùè ñëó÷èëîòî ñå.

Íà ğåæèñüîğñêèÿ ñòîë å àâñòğàëèåöúò Ğîäæúğ Äîíàëäñúí /”Ôåğìàòà”, „Âèäîâå”/, à ñğåä àêòüîğñêèÿ ñúñòàâ îòêğèâàìå Íèêúëúñ Êåéäæ,
â êîìïàíèÿòà íà îñîáåíî àêòóàëíàòà Äæåíşúğè Äæîóíñ /”Õ-ìåí: Ïúğâà âúëíà”/ è Ãàé Ïèúğñ /”Ïîâåğèòåëíî îò Åë Åé”/. 
================================================================================
Oziris811 âè Ïîæåëàâà ïğèÿòíî ãëåäàíå!
16:48 22.1.2012 ãîä.                       
================================================================================
            -=-=-=-=-R E L E A s E/i N F O-=-=-=-=-

   General
      Complete name : Seeking Justice 2011 DVDRip XviD-FTW.avi
      Format : AVI
      Format/Info : Audio Video Interleave
      File size : 1.36 GiB
      Duration : 1h 44mn
      Overall bit rate : 1 853 Kbps.
   Video #0
      ID : 0
      Format : MPEG-4 Visual
      Format profile : AdvancedSimple@L5
      Format settings, BVOP : Yes
      Format settings, QPel : No
      Format settings, GMC : No warppoints
      Format settings, Matrix : Default (H.263)
      Codec ID : XVID
      Codec ID/Hint : XviD
      Duration : 1h 44mn
      Bit rate : 1 714 Kbps
      Width : 672 pixels
      Height : 368 pixels
      Display aspect ratio : 16:9
      Frame rate : 47.952 fps
      Resolution : 24 bits
      Colorimetry : 4:2:0
      Scan type : Progressive
      Bits/(Pixel*Frame) : 0.145
      Stream size : 1.25 GiB (92%)
      Writing library : XviD 1.2.1 (UTC 2008-12-04).
   Audio #1
      ID : 1
      Format : MPEG Audio
      Format version : Version 1
      Format profile : Layer 3
      Codec ID : 55
      Codec ID/Hint : MP3
      Duration : 1h 44mn
      Bit rate mode : Constant
      Bit rate : 128 Kbps
      Channel(s) : 2 channels
      Sampling rate : 48.0 KHz
      Resolution : 16 bits
      Stream size : 96.0 MiB (7%)
      Alignment : Aligned on interleaves
      Interleave, duration : 83 ms (4.00 video frames)
      Interleave, preload duration : 216 ms
      Title : Seeking.Justice.2011.R3.DVDRip.XviD.AC3-ViSiON
      Writing library : LAME3.98r
      Encoding settings : -m j -V 4 -q 2 -lowpass 17 -b 128.
   Text #2
      ID : 2
      Duration : 1h 44mn
      Bit rate : 82 bps
      Stream size : 62.9 KiB (0%)
      Title : English.
================================================================================
Zgłoś jeśli naruszono regulamin